当前位置:
首页 » 剧情片 » 血战钢锯岭

[血战钢锯岭/钢锯岭/钢铁英雄][DVDScr-AVI][英语]

《血战钢锯岭 》海报

★金奖大导梅尔·;吉布森睽违10年再执导演筒!

★真人真事震撼改编!

  ★《超凡蜘蛛侠》安德鲁·;加菲尔德、《阿凡达》萨姆·;沃辛顿携手飙戏,展战友情谊!

★太平洋战争最血腥惨烈的战役!

史上最惨烈战役 见证最伟大英雄!

◎译 名 血战钢锯岭 / 钢锯岭 / 钢铁英雄(台)

◎片 名 Hacksaw Ridge

◎年 代 2016

◎国 家 美国 / 澳大利亚

◎类 别 剧情 / 动作 / 传记 / 历史 / 战争

◎语 言 英语

◎字 幕 N/A

◎上演日期 2016-12-08(中国大陆) / 2016-11-04(美国)

◎IMDB评分 8.5/10from 47,443 users

◎文件大小 1.82 GiB

◎文件格式 DVDScr.XVID.AC3

◎视频尺寸 720x304

◎片 长 2h 19mn

◎导 演 梅尔·吉布森

◎编 剧 安德鲁·奈特 / 罗伯特·申坎

◎主 演 安德鲁·加菲尔德 / 萨姆·沃辛顿 / 文斯·沃恩 / 雨果·维文 / 卢克·布雷西 / 泰莉莎·帕尔墨 / 瑞切尔·格里菲斯 / 纳撒尼尔·布佐尼克 / 理查德·劳斯伯格 / 马特·纳夫莱 / 费拉斯·迪拉尼 / 瑞安·柯尔 / 卢克·佩格勒

血战钢锯岭 剧情介绍:

  1945年,第二次世界大战接近尾声,作为邪恶轴心重要成员的日本,其嚣张态势已成强弩之末。是年,决定战局走向的冲绳岛战役拉开序幕,成千上万斗志昂扬的美国大兵被派往冲绳,等待他们的则是敌军重兵防守、凶险异常的钢锯岭。在这群人中间,却有一个不愿拿起武器的军医。他名叫戴斯蒙德·道斯(安德鲁·加菲尔德 Andrew Garfield 饰),来自美国的弗吉尼亚。太平洋爆发之际,瘦弱的戴斯蒙德志愿成为救死扶伤的军医而应征入伍。可因童年和家庭的原因,他始终不愿拿起枪支操练,为此宁愿背上拒服兵役的罪名被送上军事法庭。几经周折,戴斯蒙德最终和战友来到了钢锯岭。枪林弹雨,转瞬之间无数人应声倒地。在信仰和信念的支持下,戴斯蒙德仅凭一己之力拯救了数十条濒死的生命--

Video: 720x304 @bitrate 1600 2pass

Audio: English AC3 Stereo

Sample: yes included

PS: star wars anyone, even the internalwould do me? animation for kids?

General

Complete name :Hacksaw.Ridge.2016.DVDScr.XVID.AC3.HQ.Hive-CM8.avi

Format : AVI

Format/Info : Audio Video Interleave

File size : 1.82 GiB

Duration : 2h 19mn

Overall bit rate : 1 866 Kbps

Writing application : Nandub v1.0rc2

Writing library : Nandub build 1853/release

Video

ID : 0

Format : MPEG-4 Visual

Format profile : Advanced [email protected]

Format settings, BVOP : 2

Format settings, QPel : Yes

Format settings, GMC : No warppoints

Format settings, Matrix : Default (H.263)

Muxing mode : Packed bitstream

Codec ID : XVID

Codec ID/Hint : XviD

Duration : 2h 19mn

Bit rate : 1 598 Kbps

Width : 720 pixels

Height : 304 pixels

Display aspect ratio : 2.35:1

Frame rate : 29.970 fps

Color space : YUV

Chroma subsampling : 4:2:0

Bit depth : 8 bits

Scan type : Progressive

Compression mode : Lossy

Bits/(Pixel*Frame) : 0.244

Stream size : 1.56 GiB (86%)

Writing library : XviD 1.2.1 (UTC 2008-12-04)

Audio

ID : 1

Format : AC-3

Format/Info : Audio Coding 3

Mode extension : CM (complete main)

Format settings, Endianness : Big

Codec ID : 2000

Duration : 2h 19mn

Bit rate mode : Constant

Bit rate : 256 Kbps

Channel(s) : 2 channels

Channel positions : Front: L R

Sampling rate : 48.0 KHz

Bit depth : 16 bits

Compression mode : Lossy

Stream size : 255 MiB (14%)

Alignment : Split accross interleaves

Interleave, duration : 33 ms (1.00 video frame)

Interleave, preload duration : 500 ms

Screens

《血战钢锯岭 》剧照-1

《血战钢锯岭 》剧照-2

《血战钢锯岭 》剧照-3

《血战钢锯岭 》剧照-4

《血战钢锯岭 》剧照-5

《血战钢锯岭 》剧照-6

《血战钢锯岭 》剧照-7

  《血战钢锯岭 》是由美国 / 澳大利亚制片公司联合拍摄的一部片长2h 19mn的电影,由国外导演梅尔·吉布森执导,和演员雨果·维文、安德鲁·加菲尔德、马特·纳夫莱、萨姆·沃辛顿、卢克·布雷西领衔主演。感谢您下载观看血战钢锯岭 ,五一BT影院精心收集整理了所有本片资源列表,包括《血战钢锯岭 BT种子》、《血战钢锯岭 Magnet磁力链接》、《血战钢锯岭 迅雷下载》、《血战钢锯岭 QQ旋风下载》和《血战钢锯岭 快车下载》等常用下载方式,我们汇集网络数十家国内一流的迅雷、bt、磁力电影网络资源,是致力于为电影迷们分享高清、免费、优质的德国电影资源的网站。

血战钢锯岭 电影下载:

提示:推荐使用BitComet、Utorrent、QQ旋风、迅雷下载血战钢锯岭 。喜欢在线看的朋友可以把种子上传到百度网盘、115网盘,离线下载完手机电脑都可以在线看。

血战钢锯岭 电影评论

更多精彩电影